<?xml version="1.0" standalone="no"?>
<!DOCTYPE svg PUBLIC "-//W3C//DTD SVG 1.1//EN" "http://www.w3.org/Graphics/SVG/1.1/DTD/svg11.dtd" >
<svg xmlns="http://www.w3.org/2000/svg">
<metadata>Generated by IcoMoon</metadata>
<defs>
<font id="icomoon" horiz-adv-x="1024">
<font-face units-per-em="1024" ascent="960" descent="-64" />
<missing-glyph horiz-adv-x="1024" />
<glyph unicode="&#x20;" horiz-adv-x="512" d="" />
<glyph unicode="&#xe900;" glyph-name="apple" d="M695.36 796.416c35.84 43.328 59.968 103.488 53.376 163.584-51.456-2.048-114.048-34.432-150.912-77.568-33.088-38.464-62.016-99.648-54.336-158.464 57.472-4.48 116.16 29.12 151.872 72.384zM890.816 63.36c-42.56-62.464-86.912-124.672-156.736-125.952-68.48-1.344-90.496 40.576-168.896 40.576s-102.848-39.36-167.744-41.92c-67.392-2.624-118.528 67.456-161.664 129.6-88 127.104-155.136 359.296-65.024 515.904 44.928 77.824 124.928 127.040 211.904 128.384 66.24 1.088 128.576-44.48 169.024-44.48s116.224 55.104 196.032 47.040c33.28-1.536 127.040-13.504 187.328-101.568-4.992-3.136-111.872-65.28-110.72-194.88 1.344-154.944 135.936-206.528 137.536-207.104-1.28-3.52-21.568-73.472-70.976-145.536z" />
<glyph unicode="&#xe901;" glyph-name="appleinc" d="M791.488 415.936c-1.28 129.664 105.728 191.872 110.528 194.944-60.16 88-153.856 100.096-187.264 101.44-79.744 8.064-155.584-46.976-196.096-46.976-40.384 0-102.848 45.76-168.96 44.544-86.912-1.28-167.040-50.56-211.84-128.384-90.304-156.672-23.104-388.864 64.896-515.904 43.008-62.208 94.272-132.096 161.6-129.6 64.832 2.56 89.344 41.984 167.744 41.984s100.416-41.984 169.024-40.64c69.76 1.28 113.984 63.424 156.672 125.824 49.408 72.192 69.696 142.016 70.912 145.6-1.536 0.704-136.064 52.224-137.408 207.104zM662.592 796.48c35.712 43.328 59.84 103.488 53.248 163.52-51.456-2.112-113.856-34.304-150.784-77.568-33.152-38.4-62.144-99.648-54.4-158.464 57.472-4.48 116.16 29.184 151.872 72.448z" />
<glyph unicode="&#xe902;" glyph-name="arrow-down" d="M822.144 586.432l-248.704-289.344c-28.8-33.536-79.296-37.312-112.832-8.512-3.072 2.624-5.888 5.44-8.512 8.512l-248.704 289.344c-15.104 17.6-13.12 44.096 4.48 59.264 1.408 1.216 2.88 2.304 4.352 3.264 22.912 14.976 53.44 10.688 71.296-10.112l180.672-210.176c23.040-26.816 63.424-29.824 90.24-6.784 2.432 2.112 4.736 4.352 6.784 6.784l180.672 210.176c17.856 20.8 48.384 25.088 71.296 10.112 19.392-12.672 24.832-38.72 12.16-58.176-1.024-1.536-2.112-3.008-3.264-4.352z" />
<glyph unicode="&#xe903;" glyph-name="arrow-right" d="M371.392 756.48l281.856-248.64c33.152-29.248 36.288-79.808 7.040-112.896-2.176-2.496-4.544-4.864-7.040-7.040l-281.856-248.64c-16.832-14.848-42.432-13.248-57.28 3.584-1.408 1.6-2.688 3.264-3.776 5.056-14.656 23.040-10.432 53.312 10.048 71.36l204.736 180.608c26.496 23.36 29.056 63.808 5.632 90.304-1.792 1.984-3.648 3.904-5.632 5.632l-204.736 180.608c-20.48 18.048-24.768 48.384-10.048 71.36 12.032 18.88 37.12 24.448 56.064 12.416 1.792-1.152 3.456-2.368 5.056-3.776z" />
<glyph unicode="&#xe904;" glyph-name="arrow-up" d="M203.392 325.568l248.64 281.856c29.248 33.152 79.808 36.288 112.896 7.040 2.496-2.176 4.864-4.544 7.040-7.040l248.64-281.856c14.848-16.832 13.248-42.432-3.584-57.28-1.6-1.408-3.264-2.624-5.056-3.776-23.040-14.656-53.312-10.432-71.36 10.048l-180.608 204.736c-23.36 26.496-63.808 29.056-90.304 5.632-1.984-1.792-3.904-3.648-5.632-5.632l-180.608-204.736c-18.048-20.48-48.384-24.768-71.36-10.048-18.88 12.032-24.448 37.12-12.416 56.064 1.152 1.792 2.368 3.456 3.776 5.056z" />
<glyph unicode="&#xe905;" glyph-name="breakin" d="M775.488 708.8h-775.488c13.312-365.568 61.056-612.416 157.056-772.8h461.312c93.696 155.456 143.872 410.368 157.056 772.8zM799.36 510.528h102.976c-11.392-96.96-17.344-209.344-128.896-224.192-14.336-56.256-20.544-107.84-37.696-154.752 209.984 20.288 272.128 306.24 288.32 474.88h-218.496c-2.56-32.96-2.24-64.96-6.144-95.872zM204.8 789.44c0-35.2 32.832-55.040 57.152-66.944l17.472 18.368c-12.16 11.392-16.384 20.352-16.384 35.2 0 42.624 31.232 70.912 31.232 111.040 0 25.28-14.272 50.048-58.752 72.896l-16.384-18.368c7.936-7.424 16.384-18.368 16.384-39.68 0-40.192-30.72-64.448-30.72-112.576zM370.56 790.080c0-27.392 25.536-42.816 44.48-52.032l13.568 14.272c-9.472 8.896-12.736 15.808-12.736 27.392 0 33.152 24.32 55.168 24.32 86.4 0 19.648-11.136 38.976-45.696 56.704l-12.736-14.272c6.208-5.76 12.736-14.272 12.736-30.848 0-31.232-23.872-50.112-23.872-87.552zM511.36 790.080c0-27.392 25.536-42.816 44.48-52.032l13.568 14.272c-9.472 8.896-12.736 15.808-12.736 27.392 0 33.152 24.32 55.168 24.32 86.4 0 19.648-11.136 38.976-45.696 56.704l-12.736-14.272c6.208-5.76 12.736-14.272 12.736-30.848 0-31.232-23.872-50.112-23.872-87.552z" />
<glyph unicode="&#xe906;" glyph-name="breakout" d="M666.112 606.4c-22.72-264.256-43.52-453.056-109.888-577.28h-336.832c-87.488 163.392-91.328 356.864-110.016 577.28h556.736zM775.488 708.8h-775.488c13.312-365.568 61.056-612.416 157.056-772.8h461.312c93.696 155.456 143.872 410.368 157.056 772.8zM799.36 510.528h102.976c-11.392-96.96-17.344-209.344-128.896-224.192-14.336-56.256-20.544-107.84-37.696-154.752 209.984 20.288 272.128 306.24 288.32 474.88h-218.496c-2.56-32.96-2.24-64.96-6.144-95.872z" />
<glyph unicode="&#xe907;" glyph-name="calendar" d="M320 576h128v-128h-128zM512 576h128v-128h-128zM704 576h128v-128h-128zM128 192h128v-128h-128zM320 192h128v-128h-128zM512 192h128v-128h-128zM320 384h128v-128h-128zM512 384h128v-128h-128zM704 384h128v-128h-128zM128 384h128v-128h-128zM832 960v-64h-128v64h-448v-64h-128v64h-128v-1024h960v1024h-128zM896 0h-832v704h832v-704z" />
<glyph unicode="&#xe908;" glyph-name="circle" d="M1024 448c0-282.752-229.248-512-512-512s-512 229.248-512 512c0 282.752 229.248 512 512 512s512-229.248 512-512z" />
<glyph unicode="&#xe909;" glyph-name="client" d="M506.496 880c-118.848 0-215.232-96.384-215.232-215.232s96.384-215.232 215.232-215.232c118.848 0 215.232 96.384 215.232 215.232s-96.384 215.232-215.232 215.232zM506.496 784c65.856 0 119.232-53.376 119.232-119.232s-53.376-119.232-119.232-119.232c-65.856 0-119.232 53.376-119.232 119.232s53.376 119.232 119.232 119.232zM590.464 363.264c114.944 0 208.768-90.048 214.912-203.456l0.32-11.84v-83.648c0-26.496-21.504-48-48-48-24.32 0-44.352 18.048-47.552 41.472l-0.448 6.528v83.648c0 62.72-48.448 114.112-109.952 118.912l-9.344 0.384h-167.232c-62.72 0-114.112-48.448-118.912-109.952l-0.384-9.344v-84.032c0-26.496-21.504-48-48-48-24.32 0-44.352 18.048-47.552 41.472l-0.448 6.528v84.032c0 114.944 90.048 208.768 203.456 214.912l11.84 0.32h167.232z" />
<glyph unicode="&#xe90a;" glyph-name="clock-hour-hand" d="M544 595.2v-192c0-17.664-14.336-32-32-32s-32 14.336-32 32v192c0 17.664 14.336 32 32 32s32-14.336 32-32z" />
<glyph unicode="&#xe90b;" glyph-name="clock-moving-body" d="M512 752c-191.488 0-346.688-155.2-346.688-346.688s155.2-346.688 346.688-346.688c191.488 0 346.688 155.2 346.688 346.688s-155.2 346.688-346.688 346.688zM512 656c138.432 0 250.688-112.256 250.688-250.688s-112.256-250.688-250.688-250.688c-138.432 0-250.688 112.256-250.688 250.688s112.256 250.688 250.688 250.688zM270.464 828.16c21.44 15.616 51.456 10.88 67.072-10.56 14.144-19.52 11.52-46.080-5.184-62.464l-5.44-4.608-117.312-85.312c-21.44-15.616-51.456-10.88-67.072 10.56-14.144 19.52-11.52 46.080 5.184 62.464l5.44 4.608 117.312 85.312zM686.528 817.536c14.144 19.52 40.256 25.152 60.992 14.336l6.016-3.776 117.312-85.312c21.44-15.616 26.176-45.632 10.56-67.072-14.144-19.52-40.256-25.152-60.992-14.336l-6.016 3.776-117.312 85.312c-21.44 15.616-26.176 45.632-10.56 67.072z" />
<glyph unicode="&#xe90c;" glyph-name="clock" d="M512 752c-191.488 0-346.688-155.2-346.688-346.688s155.2-346.688 346.688-346.688c191.488 0 346.688 155.2 346.688 346.688s-155.2 346.688-346.688 346.688zM512 656c138.432 0 250.688-112.256 250.688-250.688s-112.256-250.688-250.688-250.688c-138.432 0-250.688 112.256-250.688 250.688s112.256 250.688 250.688 250.688zM512 565.312c15.68 0 28.8-11.328 31.488-26.24l0.512-5.76-0.064-95.936 53.376-0.064c15.68 0 28.8-11.328 31.488-26.24l0.512-5.76c0-15.68-11.328-28.8-26.24-31.488l-5.76-0.512h-85.312c-15.68 0-28.8 11.328-31.488 26.24l-0.512 5.76v128c0 17.664 14.336 32 32 32zM270.464 828.16c21.44 15.616 51.456 10.88 67.072-10.56 14.144-19.52 11.52-46.080-5.184-62.464l-5.44-4.608-117.312-85.312c-21.44-15.616-51.456-10.88-67.072 10.56-14.144 19.52-11.52 46.080 5.184 62.464l5.44 4.608 117.312 85.312zM686.528 817.536c14.144 19.52 40.256 25.152 60.992 14.336l6.016-3.776 117.312-85.312c21.44-15.616 26.176-45.632 10.56-67.072-14.144-19.52-40.256-25.152-60.992-14.336l-6.016 3.776-117.312 85.312c-21.44 15.616-26.176 45.632-10.56 67.072z" />
<glyph unicode="&#xe90d;" glyph-name="clockin" d="M689.472 256v-192l334.528 384-334.528 384v-192h-373.376c-347.712 0-337.536-384-295.168-527.040 41.856 143.040 133.312 143.040 254.912 143.040h413.696zM896 960v-64h-320.064l0.064-192h-64v256zM896-64v64h-320.064l0.064 192h-64v-256z" />
<glyph unicode="&#xe90e;" glyph-name="clockout" d="M334.528 640v192l-334.528-384 334.528-384v192h373.376c272.384 0 325.184 235.648 314.88 406.464l-1.664 21.44c-0.32 3.52-0.704 6.976-1.088 10.432l-2.56 20.096-3.008 19.072-3.456 17.856-3.84 16.576-4.096 15.104c-33.472-114.432-98.752-137.344-185.728-141.888l-22.208-0.832-23.040-0.32-437.568-0.064zM896 960v-64h-320.064l0.064-192h-64v256zM896-64v64h-320.064l0.064 192h-64v-256z" />
<glyph unicode="&#xe90f;" glyph-name="close-copy" d="M663.232 765.824l-330.24-291.328c-14.72-12.992-16.128-35.456-3.136-50.176 0.96-1.088 2.048-2.176 3.136-3.136l330.24-291.328c11.776-10.368 29.76-9.28 40.128 2.496 0.96 1.088 1.856 2.304 2.624 3.52l20.032 31.424c7.552 11.84 5.312 27.328-5.184 36.608l-252.288 222.592c-11.776 10.368-12.928 28.352-2.496 40.128 0.768 0.896 1.6 1.728 2.496 2.496l252.288 222.592c10.496 9.28 12.672 24.832 5.184 36.608l-20.032 31.424c-8.448 13.248-26.048 17.152-39.296 8.704-1.216-0.768-2.432-1.664-3.52-2.624z" />
<glyph unicode="&#xe910;" glyph-name="close" d="M240.448 810.048l271.488-271.488 271.552 271.488c25.024 25.024 65.536 25.024 90.496 0s25.024-65.536 0-90.496l-271.552-271.488 271.552-271.552c25.024-25.024 25.024-65.536 0-90.496s-65.536-25.024-90.496 0l-271.552 271.552-271.488-271.552c-25.024-25.024-65.536-25.024-90.496 0s-25.024 65.536 0 90.496l271.488 271.552-271.488 271.488c-25.024 25.024-25.024 65.536 0 90.496s65.536 25.024 90.496 0z" />
<glyph unicode="&#xe911;" glyph-name="creditcard1" d="M1024 736.064v-650.176c0-23.168-8.576-43.328-25.664-60.352s-37.248-25.536-60.544-25.536h-851.904c-23.168 0-43.328 8.512-60.352 25.536s-25.536 37.12-25.536 60.352v650.176c0 23.296 8.512 43.456 25.536 60.544s37.12 25.664 60.352 25.664h851.904c23.296 0 43.456-8.576 60.544-25.664s25.664-37.248 25.664-60.544zM85.888 601.984h851.904v134.080h-851.904v-134.080zM85.888 439.36v-353.408h851.904v353.408h-851.904zM88.448 85.888v0z" />
<glyph unicode="&#xe912;" glyph-name="done" d="M906.816 710.528l-10.24 9.024c-24.384 21.376-60.928 21.184-85.056-0.576l-413.568-372.736-186.944 157.888c-24.512 20.736-60.608 20.032-84.352-1.6l-10.624-9.664c-25.28-23.040-27.136-62.208-4.096-87.552 1.792-1.984 3.712-3.776 5.696-5.504l282.304-239.744 507.52 456.768c25.728 23.168 27.84 62.848 4.672 88.576-1.664 1.856-3.392 3.584-5.248 5.184z" />
<glyph unicode="&#xe913;" glyph-name="double-left" horiz-adv-x="576" d="M358.272 173.696c0-4.544-2.304-9.728-5.696-13.12l-28.544-28.544c-3.456-3.456-8.576-5.696-13.12-5.696s-9.728 2.304-13.12 5.696l-266.304 266.304c-3.456 3.456-5.696 8.576-5.696 13.12s2.304 9.728 5.696 13.12l266.304 266.304c3.456 3.456 8.576 5.696 13.12 5.696s9.728-2.304 13.12-5.696l28.544-28.544c3.456-3.456 5.696-8.576 5.696-13.12s-2.304-9.728-5.696-13.12l-224.576-224.576 224.576-224.576c3.456-3.456 5.696-8.576 5.696-13.12zM577.728 173.696c0-4.544-2.304-9.728-5.696-13.12l-28.544-28.544c-3.456-3.456-8.576-5.696-13.12-5.696s-9.728 2.304-13.12 5.696l-266.304 266.304c-3.456 3.456-5.696 8.576-5.696 13.12s2.304 9.728 5.696 13.12l266.304 266.304c3.456 3.456 8.576 5.696 13.12 5.696s9.728-2.304 13.12-5.696l28.544-28.544c3.456-3.456 5.696-8.576 5.696-13.12s-2.304-9.728-5.696-13.12l-224.576-224.576 224.576-224.576c3.456-3.456 5.696-8.576 5.696-13.12z" />
<glyph unicode="&#xe914;" glyph-name="double-right" horiz-adv-x="576" d="M340.032 411.456c0-4.544-2.304-9.728-5.696-13.12l-266.304-266.304c-3.456-3.456-8.576-5.696-13.12-5.696s-9.728 2.304-13.12 5.696l-28.544 28.544c-3.456 3.456-5.696 8.576-5.696 13.12s2.304 9.728 5.696 13.12l224.576 224.576-224.576 224.576c-3.456 3.456-5.696 8.576-5.696 13.12s2.304 9.728 5.696 13.12l28.544 28.544c3.456 3.456 8.576 5.696 13.12 5.696s9.728-2.304 13.12-5.696l266.304-266.304c3.456-3.456 5.696-8.576 5.696-13.12zM559.424 411.456c0-4.544-2.304-9.728-5.696-13.12l-266.304-266.304c-3.456-3.456-8.576-5.696-13.12-5.696s-9.728 2.304-13.12 5.696l-28.544 28.544c-3.456 3.456-5.696 8.576-5.696 13.12s2.304 9.728 5.696 13.12l224.576 224.576-224.576 224.576c-3.456 3.456-5.696 8.576-5.696 13.12s2.304 9.728 5.696 13.12l28.544 28.544c3.456 3.456 8.576 5.696 13.12 5.696s9.728-2.304 13.12-5.696l266.304-266.304c3.456-3.456 5.696-8.576 5.696-13.12z" />
<glyph unicode="&#xe915;" glyph-name="download3" d="M736 512l-256-256-256 256h160v384h192v-384zM480 256h-480v-256h960v256h-480zM896 128h-128v64h128v-64z" />
<glyph unicode="&#xe916;" glyph-name="draft-2" d="M627.2 832v-25.6c0-17.664-14.336-32-32-32h-416c-17.664 0-32 14.336-32 32v25.6c0 17.664 14.336 32 32 32h416c17.664 0 32-14.336 32-32zM908.8 416v-352c0-17.664-14.336-32-32-32h-25.6c-17.664 0-32 14.336-32 32v352c0 17.664 14.336 32 32 32h25.6c17.664 0 32-14.336 32-32zM786.688 853.696c36.16 38.784 96.896 40.896 135.68 4.736l28.096-26.176c38.784-36.16 40.896-96.896 4.736-135.68l-409.344-438.976c-9.664-10.304-21.44-18.432-34.56-23.68l-166.272-66.496c-16.384-6.592-35.008 1.408-41.6 17.856-2.752 6.848-3.008 14.4-0.832 21.44l53.568 171.52c4.288 13.76 11.584 26.304 21.44 36.864l409.088 438.656zM833.472 810.048l-409.088-438.656c-2.176-2.368-3.968-4.992-5.376-7.872l-1.728-4.416-33.536-107.264 103.808 41.536c2.944 1.152 5.632 2.752 8.064 4.672l3.456 3.2 409.344 438.976c10.688 11.52 11.328 28.736 2.304 40.896l-3.84 4.288-28.096 26.176c-11.52 10.688-28.736 11.328-40.896 2.304l-4.288-3.84zM384.896 417.344l150.912-144.064-13.248-13.888-150.912 144.064zM776.96 766.144l120.896-112.704-10.752-11.52-120.896 112.704zM198.4 832v-768c0-17.664-14.336-32-32-32h-19.2c-17.664 0-32 14.336-32 32v768c0 17.664 14.336 32 32 32h19.2c17.664 0 32-14.336 32-32zM908.8 83.2v-25.6c0-17.664-14.336-32-32-32h-729.6c-17.664 0-32 14.336-32 32v25.6c0 17.664 14.336 32 32 32h729.6c17.664 0 32-14.336 32-32z" />
<glyph unicode="&#xe917;" glyph-name="draft" d="M553.6 800v-278.4c0-17.664 14.336-32 32-32h214.4v-83.2h-256c-37.952 0-69.184 28.736-73.152 65.6l-0.448 8v320h83.2zM497.024 873.6h-273.024c-40.64 0-73.6-32.96-73.6-73.6v-704c0-40.64 32.96-73.6 73.6-73.6h576c40.64 0 73.6 32.96 73.6 73.6v340.416c0 17.216-6.016 33.92-17.088 47.104l-302.976 363.584c-14.016 16.768-34.688 26.496-56.512 26.496zM553.984 716.544l236.416-283.648v-295.296c0-17.664-14.336-32-32-32h-492.8c-17.664 0-32 14.336-32 32v620.8c0 17.664 14.336 32 32 32h226.88z" />
<glyph unicode="&#xe918;" glyph-name="eye-blocked" d="M945.92 945.92c-18.752 18.752-49.152 18.752-67.904 0l-202.176-202.176c-51.968 15.744-106.944 24.192-163.904 24.192-223.296 0-416.896-130.048-512-320 41.152-82.112 100.672-153.024 172.992-207.104l-158.976-158.976c-18.752-18.752-18.752-49.152 0-67.904 9.344-9.344 21.632-14.080 33.92-14.080s24.576 4.672 33.92 14.080l864 864c18.752 18.752 18.752 49.152 0 67.904zM416 640c42.24 0 78.080-27.264 90.944-65.216l-121.728-121.728c-37.888 12.864-65.216 48.704-65.216 90.944 0 52.992 43.008 96 96 96zM110.144 448c38.272 60.544 89.28 111.936 149.44 150.272 3.904 2.496 7.872 4.928 11.84 7.296-9.984-27.328-15.424-56.832-15.424-87.616 0-54.912 17.28-105.728 46.72-147.392l-60.928-60.928c-52.416 36.864-97.216 83.904-131.648 138.368zM768 518.016c0 27.136-4.224 53.312-12.096 77.888l-321.792-321.792c24.576-7.872 50.752-12.096 77.888-12.096 141.376 0 256 114.624 256 256zM830.016 670.016l-69.376-69.376c1.28-0.768 2.56-1.536 3.776-2.368 60.16-38.4 111.168-89.792 149.44-150.272-38.272-60.544-89.28-111.936-149.44-150.272-75.584-48.192-162.88-73.728-252.416-73.728-38.656 0-76.928 4.736-113.984 14.016l-76.864-76.864c59.712-21.44 123.968-33.152 190.848-33.152 223.296 0 416.896 130.048 512 320-44.992 89.92-112.128 166.4-193.984 222.016z" />
<glyph unicode="&#xe919;" glyph-name="eye" d="M512 768c-223.296 0-416.896-130.048-512-320 95.104-189.952 288.704-320 512-320s416.896 130.048 512 320c-95.104 189.952-288.704 320-512 320zM764.48 598.272c60.16-38.4 111.168-89.792 149.44-150.272-38.272-60.544-89.28-111.936-149.44-150.272-75.584-48.192-162.88-73.728-252.416-73.728s-176.832 25.472-252.48 73.728c-60.16 38.4-111.168 89.792-149.44 150.272 38.272 60.544 89.28 111.936 149.44 150.272 3.904 2.496 7.872 4.928 11.84 7.296-9.984-27.328-15.424-56.832-15.424-87.616 0-141.376 114.624-256 256-256s256 114.624 256 256c0 30.784-5.44 60.288-15.424 87.616 3.968-2.368 7.936-4.8 11.84-7.296v0zM512 544c0-52.992-43.008-96-96-96s-96 43.008-96 96 43.008 96 96 96 96-43.008 96-96z" />
<glyph unicode="&#xe91a;" glyph-name="file-pdf" d="M841.984 370.496c-13.632 13.44-43.904 20.544-89.984 21.184-31.168 0.32-68.672-2.432-108.16-7.936-17.664 10.176-35.904 21.312-50.176 34.688-38.464 35.904-70.592 85.76-90.56 140.608 1.28 5.12 2.432 9.6 3.456 14.208 0 0 21.696 123.072 15.936 164.672-0.768 5.696-1.28 7.36-2.816 11.776l-1.856 4.864c-5.888 13.568-17.472 27.968-35.584 27.2l-10.944 0.32c-20.224 0-36.672-10.304-40.96-25.792-13.12-48.448 0.448-120.896 24.96-214.72l-6.272-15.296c-17.6-42.88-39.616-86.080-59.072-124.16l-2.56-4.928c-20.48-40.064-39.040-74.048-55.872-102.848l-17.344-9.216c-1.28-0.64-31.040-16.448-38.016-20.672-59.264-35.392-98.496-75.52-105.024-107.392-2.048-10.176-0.512-23.168 9.984-29.184l16.832-8.448c7.296-3.648 14.976-5.504 22.848-5.504 42.176 0 91.2 52.544 158.72 170.368 77.952 25.344 166.656 46.464 244.416 58.112 59.264-33.344 132.16-56.512 178.112-56.512 8.192 0 15.232 0.768 20.928 2.304 8.832 2.368 16.256 7.36 20.8 14.208 8.896 13.44 10.752 31.936 8.32 50.88-0.704 5.632-5.184 12.544-10.048 17.344zM211.648 145.92c7.68 21.056 38.144 62.656 83.2 99.584 2.816 2.304 9.792 8.832 16.192 14.912-47.104-75.136-78.656-105.088-99.392-114.432zM478.464 760.32c13.568 0 21.312-34.176 21.952-66.24s-6.848-54.592-16.128-71.232c-7.68 24.64-11.456 63.488-11.456 88.896 0 0-0.576 48.576 5.632 48.576v0zM398.848 322.496c9.472 16.896 19.264 34.752 29.312 53.696 24.512 46.336 39.936 82.56 51.456 112.32 22.912-41.664 51.456-77.12 84.992-105.536 4.16-3.52 8.64-7.104 13.248-10.624-68.224-13.504-127.168-29.888-179.072-49.856v0zM828.928 326.336c-4.16-2.624-16.064-4.096-23.68-4.096-24.704 0-55.296 11.264-98.112 29.696 16.448 1.216 31.552 1.856 45.12 1.856 24.768 0 32.128 0.128 56.32-6.080s24.512-18.752 20.352-21.312v0zM917.824 730.944c-22.208 30.272-53.184 65.728-87.168 99.712s-69.44 64.96-99.712 87.168c-51.584 37.824-76.608 42.176-90.944 42.176h-496c-44.096 0-80-35.904-80-80v-864c0-44.096 35.904-80 80-80h736c44.096 0 80 35.904 80 80v624c0 14.336-4.352 39.36-42.176 90.944v0zM785.344 785.344c30.72-30.72 54.784-58.368 72.576-81.344h-153.984v153.92c22.976-17.792 50.688-41.856 81.344-72.576v0zM896 16c0-8.704-7.296-16-16-16h-736c-8.64 0-16 7.296-16 16v864c0 8.64 7.36 16 16 16 0 0 495.936 0 496 0v-224c0-17.664 14.336-32 32-32h224v-624z" />
<glyph unicode="&#xe91b;" glyph-name="filter" d="M512 960c-282.752 0-512-71.616-512-160v-96l384-384v-320c0-35.328 57.28-64 128-64s128 28.672 128 64v320l384 384v96c0 88.384-229.248 160-512 160zM94.4 821.184c23.936 13.632 57.6 26.624 97.28 37.504 87.936 24.064 201.728 37.312 320.32 37.312s232.384-13.248 320.32-37.312c39.68-10.88 73.344-23.808 97.28-37.504 15.808-9.024 24.32-16.64 28.288-21.184-3.968-4.544-12.48-12.16-28.288-21.184-23.936-13.632-57.6-26.624-97.28-37.504-87.936-24.064-201.728-37.312-320.32-37.312s-232.384 13.248-320.32 37.312c-39.68 10.88-73.344 23.808-97.28 37.504-15.808 9.024-24.32 16.64-28.288 21.184 3.968 4.544 12.48 12.16 28.288 21.184z" />
<glyph unicode="&#xe91c;" glyph-name="google" d="M522.176 521.216v-175.616h290.368c-11.776-75.392-87.808-220.8-290.368-220.8-174.784 0-317.376 144.768-317.376 323.2s142.592 323.2 317.376 323.2c99.392 0 166.016-42.432 204.032-78.976l139.008 133.824c-89.216 83.584-204.8 134.016-342.976 134.016-283.008 0-512-228.992-512-512s228.992-512 512-512c295.424 0 491.584 207.808 491.584 500.224 0 33.6-3.584 59.2-8 84.8l-483.584 0.192z" />
<glyph unicode="&#xe91d;" d="M1024 436.352c0 36.288-3.328 71.232-9.472 104.704h-492.032v-198.080h281.152c-12.096-64-48.896-118.208-104.256-154.56v-128.448h168.832c98.816 89.152 155.776 220.416 155.776 376.32v0z" />
<glyph unicode="&#xe91e;" d="M522.432-64c141.056 0 259.328 45.824 345.792 124.032l-168.832 128.448c-46.784-30.72-106.624-48.896-176.896-48.896-136.064 0-251.264 90.048-292.352 211.072h-174.528v-132.672c85.952-167.36 262.656-282.048 466.88-282.048v0z" />
<glyph unicode="&#xe91f;" d="M230.144 350.72c-10.432 30.72-16.384 63.552-16.384 97.28s5.952 66.56 16.384 97.28v132.672h-174.528c-35.392-69.12-55.552-147.328-55.552-229.952s20.16-160.832 55.552-229.952l174.528 132.672z" />
<glyph unicode="&#xe920;" d="M722.176 679.808l149.824 146.88c-90.496 82.624-208.768 133.376-349.568 133.376-204.224 0-380.928-114.752-466.88-282.048l174.528-132.672c41.088 121.024 156.288 211.072 292.352 211.072 76.736 0 145.6-25.856 199.744-76.544z" />
<glyph unicode="&#xe921;" glyph-name="hash" d="M455.168 864c26.432 0 51.2-4.48 74.176-13.504s42.752-21.44 59.52-37.312c16.768-15.936 29.888-34.752 39.104-56.064s13.888-43.968 13.888-67.456c0-28.736-4.736-54.4-14.4-76.736-9.344-21.504-22.016-40.704-37.888-57.472-11.264-11.84-23.936-22.912-37.888-33.152l-14.4-9.984-24.512-15.616 127.68-150.976 0.448 1.472 2.304 11.968c2.304 15.040 3.904 30.336 4.672 45.888l0.576 23.488v32h125.76l-1.344-33.28c-1.472-35.264-5.952-70.4-13.504-105.28-3.968-18.432-9.536-36.288-16.704-53.44l-7.68-17.024-6.272-11.968 149.824-176.768h-167.104l-57.92 70.4-1.024-1.088c-18.368-17.984-37.504-33.152-57.472-45.312l-15.104-8.576-15.424-7.488c-41.152-18.304-88.576-27.328-142.016-27.328-35.904 0-69.76 5.952-101.44 17.92-31.744 12.032-59.648 28.992-83.52 50.88-24.128 22.144-43.072 48.768-56.768 79.744-13.824 31.168-20.672 65.472-20.672 102.592 0 31.424 5.568 60.8 16.768 87.936 10.816 26.24 25.344 50.24 43.456 71.872 17.856 21.312 38.592 40.128 62.080 56.384l17.344 11.456 19.136 11.392-4.992 6.72-7.104 10.048-6.912 10.176-13.312 20.928c-19.456 32-29.248 67.648-29.248 106.24 0 27.904 5.44 53.376 16.576 76.032 10.88 22.144 25.728 41.024 44.288 56.256 18.304 14.976 39.616 26.176 63.68 33.472 23.232 7.104 47.68 10.624 73.344 10.624zM396.992 438.528l-4.992-2.944c-8.512-5.12-16.64-10.624-24.384-16.576-15.232-11.648-28.224-24.512-39.168-38.656-10.816-14.080-19.456-29.056-25.856-45.056-6.016-15.040-8.96-30.272-8.96-45.952 0-20.288 3.392-37.952 10.112-53.184 6.784-15.488 15.872-28.48 27.328-39.104 11.52-10.752 25.344-19.136 41.6-25.216 16.448-6.144 34.688-9.216 54.848-9.216 33.984 0 63.296 7.552 88.576 22.656 18.176 10.816 35.2 23.872 51.136 39.296l5.12 5.248-175.36 208.768zM450.048 744.704c-9.408 0-18.048-1.472-26.24-4.288s-15.36-6.848-21.696-12.032c-5.696-4.608-10.176-10.24-13.632-17.152-3.2-6.336-4.8-13.76-4.8-22.528 0-6.336 1.792-14.144 5.696-23.424 4.736-11.264 10.56-22.336 17.472-33.088l11.264-16.768 11.968-16 5.44-6.912 16.32 10.688 20.096 13.824c16.064 11.328 27.84 25.728 35.84 43.84 3.968 8.832 5.632 18.112 4.928 28.288s-3.52 19.072-8.576 27.2c-5.12 8.256-12.16 15.040-21.568 20.672-8.448 5.056-19.136 7.744-32.704 7.744z" />
<glyph unicode="&#xe922;" glyph-name="high-priority" d="M131.52 473.152c-42.688-21.056-93.888-7.040-119.488 28.096s-8.512 70.208 34.112 91.264l426.688 210.624c25.6 14.016 59.712 14.016 85.312 0l426.688-210.624c42.688-21.056 51.2-63.168 25.6-98.304-17.088-28.096-68.288-42.112-110.912-21.056l-384 189.568-384-189.568zM131.52 171.2c-42.688-21.056-93.888-14.016-119.488 21.056s-8.512 77.248 34.112 98.304l426.688 210.624c25.6 14.016 59.712 14.016 85.312 0l426.688-210.624c42.688-21.056 51.2-63.168 25.6-98.304s-76.8-42.112-119.488-21.056l-375.488 189.568-384-189.568z" />
<glyph unicode="&#xe923;" glyph-name="information" d="M512 896c247.424 0 448-200.576 448-448s-200.576-448-448-448c-247.424 0-448 200.576-448 448s200.576 448 448 448zM512 832c-212.096 0-384-171.904-384-384s171.904-384 384-384c212.096 0 384 171.904 384 384s-171.904 384-384 384zM576 656c0-35.328-28.672-64-64-64s-64 28.672-64 64c0 35.328 28.672 64 64 64s64-28.672 64-64zM512 524.8c26.496 0 48-18.816 48-41.984v-274.368c0-23.168-21.504-41.984-48-41.984s-48 18.816-48 41.984v274.368c0 23.168 21.504 41.984 48 41.984z" />
<glyph unicode="&#xe924;" glyph-name="integrations" d="M363.712 237.952l41.28 57.792-45.248 45.248-57.792-41.28c-10.752 6.016-22.208 10.752-34.24 14.208l-11.712 70.080h-64l-11.712-70.080c-12.032-3.392-23.552-8.192-34.24-14.208l-57.792 41.28-45.248-45.248 41.28-57.792c-6.016-10.752-10.752-22.208-14.208-34.24l-70.080-11.712v-64l70.080-11.712c3.392-12.032 8.192-23.552 14.208-34.24l-41.28-57.792 45.248-45.248 57.792 41.28c10.752-6.016 22.208-10.752 34.24-14.208l11.712-70.080h64l11.712 70.080c12.032 3.392 23.552 8.192 34.24 14.208l57.792-41.28 45.248 45.248-41.28 57.792c6.016 10.752 10.752 22.208 14.208 34.24l70.080 11.648v64l-70.080 11.712c-3.392 12.032-8.192 23.552-14.208 34.24zM224 96c-35.328 0-64 28.672-64 64s28.672 64 64 64 64-28.672 64-64-28.672-64-64-64zM1024 576v64l-67.392 12.224c-1.216 8.064-2.816 16-4.736 23.808l57.536 37.12-24.512 59.136-66.944-14.464c-4.224 6.912-8.704 13.632-13.504 20.16l38.976 56.32-45.248 45.248-56.32-38.976c-6.528 4.736-13.248 9.28-20.16 13.504l14.464 66.944-59.136 24.512-37.12-57.536c-7.808 1.92-15.744 3.456-23.808 4.736l-12.224 67.392h-64l-12.224-67.392c-8.064-1.216-16-2.816-23.808-4.736l-37.12 57.536-59.136-24.512 14.464-66.944c-6.912-4.224-13.632-8.704-20.16-13.504l-56.32 38.976-45.248-45.248 38.976-56.32c-4.736-6.528-9.28-13.248-13.504-20.16l-66.944 14.464-24.512-59.136 57.536-37.12c-1.92-7.808-3.456-15.744-4.736-23.808l-67.392-12.224v-64l67.392-12.224c1.216-8.064 2.816-16 4.736-23.808l-57.536-37.12 24.512-59.136 66.944 14.464c4.224-6.912 8.704-13.632 13.504-20.16l-38.976-56.32 45.248-45.248 56.32 38.976c6.528-4.736 13.248-9.28 20.16-13.504l-14.464-66.944 59.136-24.512 37.12 57.536c7.808-1.92 15.744-3.456 23.808-4.736l12.224-67.392h64l12.224 67.392c8.064 1.216 16 2.816 23.808 4.736l37.12-57.536 59.136 24.512-14.464 66.944c6.912 4.224 13.632 8.704 20.16 13.504l56.32-38.976 45.248 45.248-38.976 56.32c4.736 6.528 9.28 13.248 13.504 20.16l66.944-14.464 24.512 59.136-57.536 37.12c1.92 7.808 3.456 15.744 4.736 23.808l67.392 12.224zM672 468.8c-76.864 0-139.2 62.336-139.2 139.2s62.336 139.2 139.2 139.2 139.2-62.336 139.2-139.2c0-76.864-62.336-139.2-139.2-139.2z" />
<glyph unicode="&#xe925;" glyph-name="link" d="M832 896c70.72 0 128-57.28 128-128v-640c0-70.72-57.28-128-128-128h-640c-70.72 0-128 57.28-128 128v640c0 70.72 57.28 128 128 128h640zM832 800h-640c-15.68 0-28.8-11.328-31.488-26.24l-0.512-5.76v-640c0-15.68 11.328-28.8 26.24-31.488l5.76-0.512h640c15.68 0 28.8 11.328 31.488 26.24l0.512 5.76v640c0 15.68-11.328 28.8-26.24 31.488l-5.76 0.512zM707.2 576v-277.312c0-23.552-19.072-42.688-42.688-42.688s-42.688 19.072-42.688 42.688v192c0 35.328-28.672 64-64 64h-192c-23.552 0-42.688 19.072-42.688 42.688s19.072 42.688 42.688 42.688h277.312c35.328 0 64-28.672 64-64zM635.84 577.6c-18.24 18.88-44.928 23.232-61.952 10.88l-3.776-3.136-271.168-261.888c-16.64-16.064-11.52-46.656 5.44-65.92 16.768-19.136 44.928-23.232 61.952-10.88l3.776 3.136 271.168 261.888c16.64 16.064 14.208 45.568-5.44 65.92z" />
<glyph unicode="&#xe926;" glyph-name="location-off" d="M271.424 803.264c135.872 125.376 345.28 125.376 481.088 0 135.296-124.864 148.608-333.952 30.336-475.008l-270.848-322.944-270.848 322.944c-118.272 141.056-104.96 350.144 30.336 475.008zM687.424 732.736c-99.072 91.456-251.776 91.456-350.912 0-97.6-90.112-107.264-240.96-21.888-342.784l197.312-235.264 197.312 235.264c82.432 98.24 76.288 242.304-12.096 333.248l-9.792 9.536zM512 576c35.328 0 64-28.672 64-64s-28.672-64-64-64c-35.328 0-64 28.672-64 64s28.672 64 64 64zM86.656 854.656l768-768-45.248-45.248-768 768z" />
<glyph unicode="&#xe927;" glyph-name="location-on" d="M271.424 803.264c135.872 125.376 345.28 125.376 481.088 0 135.296-124.864 148.608-333.952 30.336-475.008l-270.848-322.944-270.848 322.944c-118.272 141.056-104.96 350.144 30.336 475.008zM687.424 732.736c-99.072 91.456-251.776 91.456-350.912 0-97.6-90.112-107.264-240.96-21.888-342.784l197.312-235.264 197.312 235.264c82.432 98.24 76.288 242.304-12.096 333.248l-9.792 9.536zM512 576c35.328 0 64-28.672 64-64s-28.672-64-64-64c-35.328 0-64 28.672-64 64s28.672 64 64 64z" />
<glyph unicode="&#xe928;" glyph-name="locked" d="M704 576c70.72 0 128-57.28 128-128v-256c0-70.72-57.28-128-128-128h-384c-70.72 0-128 57.28-128 128v256c0 70.72 57.28 128 128 128h384zM512 416c-52.992 0-96-43.008-96-96s43.008-96 96-96c52.992 0 96 43.008 96 96s-43.008 96-96 96zM509.888 880c115.776 0 211.52-86.4 217.728-196.544l0.32-11.456v-160c0-26.496-21.504-48-48-48-24.32 0-44.352 18.048-47.552 41.472l-0.448 6.528v160c0 61.184-54.016 112-122.048 112-64.64 0-116.608-45.888-121.664-102.912l-0.384-9.088v-160c0-26.496-21.504-48-48-48-24.32 0-44.352 18.048-47.552 41.472l-0.448 6.528v160c0 115.584 98.24 208 218.048 208z" />
<glyph unicode="&#xe929;" glyph-name="low-priority" d="M892.288 652.992c42.624 30.784 93.824 10.24 119.36-41.024s8.512-112.832-25.6-133.376l-426.368-307.776c-25.6-20.544-59.712-20.544-85.248 0l-426.368 307.776c-51.136 20.544-59.712 92.352-34.112 133.376 17.024 51.264 76.736 71.808 110.848 41.024l383.744-276.992 383.744 276.992z" />
<glyph unicode="&#xe92a;" glyph-name="magnifier" d="M416 864c176.704 0 320-143.296 320-320 0-65.216-19.52-125.888-52.992-176.448l226.688-226.688c23.232-23.232 24.896-59.776 4.992-84.928l-4.992-5.568c-23.232-23.232-59.776-24.896-84.928-4.992l-5.568 4.992-226.688 226.688c-50.56-33.536-111.232-52.992-176.448-52.992-176.704 0-320 143.296-320 320s143.296 320 320 320zM416 768c-123.712 0-224-100.288-224-224s100.288-224 224-224c123.712 0 224 100.288 224 224s-100.288 224-224 224z" />
<glyph unicode="&#xe92b;" glyph-name="medium-priority" d="M85.312 725.952h853.312c51.2 0 85.312-27.776 85.312-69.504s-34.112-69.504-85.312-69.504h-853.312c-51.2 0-85.312 27.776-85.312 69.504s34.112 69.504 85.312 69.504zM85.312 309.056h853.312c51.2 0 85.312-27.776 85.312-69.504s-34.112-69.504-85.312-69.504h-853.312c-51.2 0-85.312 27.776-85.312 69.504s34.112 69.504 85.312 69.504z" />
<glyph unicode="&#xe92c;" glyph-name="members" d="M398.912 880c-120.704 0-218.944-96.448-218.944-215.872s98.24-215.872 218.944-215.872c120.704 0 218.944 96.448 218.944 215.872s-98.24 215.872-218.944 215.872zM398.912 784c68.096 0 122.944-53.888 122.944-119.872s-54.848-119.872-122.944-119.872c-68.096 0-122.944 53.888-122.944 119.872s54.848 119.872 122.944 119.872zM469.44 363.52c116.416-0.192 211.84-90.048 218.24-203.712l0.32-11.84v-83.904c0-26.496-21.504-48-48-48-24.32 0-44.352 18.048-47.552 41.472l-0.448 6.528v83.84c-0.128 62.72-49.728 114.432-113.088 119.296l-9.6 0.384h-170.624c-64.64-0.128-117.312-48.768-122.368-110.144l-0.384-9.28v-83.904c0-26.496-21.504-48-48-48-24.32 0-44.352 18.048-47.552 41.472l-0.448 6.528v84.032c0.32 115.072 91.84 208.64 206.72 214.912l11.968 0.32h170.752zM636.16 824.512c6.528 25.728 32.64 41.28 58.304 34.752 96.512-24.448 164.224-110.272 164.224-208.768s-67.712-184.32-164.224-208.768c-25.728-6.528-51.776 9.024-58.304 34.752s9.024 51.776 34.752 58.304c54.208 13.76 91.84 61.44 91.84 115.712 0 50.944-33.088 96-81.856 112.768l-9.984 2.944c-25.728 6.528-41.28 32.64-34.752 58.304zM721.472 321.024c6.528 25.664 32.704 41.216 58.368 34.624 91.904-23.424 157.696-102.4 163.712-195.456l0.448-12.224v-83.904c0-26.496-21.504-48-48-48-24.32 0-44.352 18.048-47.552 41.472l-0.448 6.528v83.52c-0.384 50.624-33.408 95.36-81.92 112.064l-9.92 2.944c-25.664 6.528-41.216 32.704-34.624 58.368z" />
<glyph unicode="&#xe92d;" glyph-name="menu" d="M320 448c0-53.056-42.944-96-96-96s-96 42.944-96 96c0 53.056 42.944 96 96 96s96-42.944 96-96zM608 448c0-53.056-42.944-96-96-96s-96 42.944-96 96c0 53.056 42.944 96 96 96s96-42.944 96-96zM896 448c0-53.056-42.944-96-96-96s-96 42.944-96 96c0 53.056 42.944 96 96 96s96-42.944 96-96z" />
<glyph unicode="&#xe92e;" glyph-name="menu1" d="M64 768h896v-192h-896zM64 512h896v-192h-896zM64 256h896v-192h-896z" />
<glyph unicode="&#xe92f;" glyph-name="minimize" d="M448 384v-416l-160 160-192-192-96 96 192 192-160 160zM1024 864l-192-192 160-160h-416v416l160-160 192 192z" />
<glyph unicode="&#xe930;" glyph-name="mood" d="M14.912 613.312q0 108.352 72.192 183.232t178.496 74.88q60.032 0 111.104-25.088t91.584-75.2q46.912 52.288 96.256 76.288t106.048 24q86.72 0 150.208-55.488t83.712-137.6q7.488-19.2-2.432-36.736t-29.312-24-36.544 2.944-24.512 28.992q-7.488 50.112-43.712 85.312t-97.536 35.2q-50.688 0-91.776-28.8t-61.376-76.8q-7.488-14.912-21.12-24t-28.992-9.088q-14.912 0-28.288 8.512t-19.712 24.512q-19.2 49.088-60.544 77.312t-93.248 28.288q-67.072 0-108.096-44.928t-41.088-111.488q0-43.072 16.064-82.432t55.872-89.344 108.224-116.288 171.84-164.608l52.288 45.888q13.952 13.888 33.536 13.632t34.432-15.296q15.232-14.4 14.656-35.712t-16.512-35.2l-52.288-46.912q-13.888-12.8-31.744-18.688t-34.688-5.888-34.048 5.824-30.784 18.688q-94.912 86.4-167.488 157.312t-121.6 133.312-74.112 119.424-25.088 115.776zM728.512 355.2h-88.512q-21.056 0-35.584 14.592t-14.528 35.712 14.528 35.52 35.584 14.4h88.512v88.512q0 21.056 14.592 35.584t35.712 14.528 35.52-14.528 14.4-35.584v-88.512h88.512q21.056 0 35.584-14.592t14.528-35.712-14.528-35.52-35.584-14.4h-88.512v-88.512q0-21.056-14.592-35.584t-35.712-14.528-35.52 14.528-14.4 35.584v88.512z" />
<glyph unicode="&#xe931;" glyph-name="notification-important" d="M512 22.016q-36.032 0-60.992 24t-25.024 60.032h172.032q0-33.984-25.984-59.008t-60.032-25.024zM553.984 448v169.984h-84.032v-169.984h84.032zM553.984 278.016v84.032h-84.032v-84.032h84.032zM768 278.016l86.016-86.016v-41.984h-684.032v41.984l86.016 86.016v212.032q0 100.032 51.008 174.016t140.992 96v30.016q0 25.984 17.984 44.992t46.016 19.008 46.016-19.008 17.984-44.992v-30.016q89.984-22.016 140.992-96t51.008-174.016v-212.032z" />
<glyph unicode="&#xe932;" glyph-name="pause" d="M288-64h-128c-35.328 0-64 28.672-64 64v896c0 35.328 28.672 64 64 64h128c35.328 0 64-28.672 64-64v-896c0-35.328-28.672-64-64-64zM864 960h-128c-35.328 0-64-28.672-64-64v-896c0-35.328 28.672-64 64-64h128c35.328 0 64 28.672 64 64v896c0 35.328-28.672 64-64 64z" />
<glyph unicode="&#xe933;" glyph-name="pencil" d="M694.656 901.12c47.68 51.776 127.744 54.592 178.816 6.336l36.992-34.944c51.136-48.256 53.888-129.344 6.272-181.12l-539.52-586.048c-12.736-13.824-28.224-24.576-45.568-31.616l-219.136-88.768c-21.632-8.768-46.144 1.92-54.848 23.808-3.584 9.152-3.968 19.2-1.088 28.608l70.656 228.928c5.632 18.304 15.296 35.136 28.224 49.152l539.136 585.664zM756.352 842.88l-539.136-585.664c-2.88-3.136-5.248-6.656-7.104-10.496l-2.304-5.952-44.224-143.232 136.768 55.424c3.84 1.536 7.424 3.648 10.624 6.272l4.544 4.224 539.52 586.048c14.144 15.36 14.976 38.4 3.008 54.656l-5.056 5.76-36.992 34.944c-15.168 14.272-37.888 15.168-53.952 3.008l-5.696-5.12zM216.448 339.328l164.352-172.8-15.488-15.552-164.352 172.8zM658.048 743.104l131.712-135.36-12.544-12.928-131.712 135.36z" />
<glyph unicode="&#xe934;" glyph-name="permissions" d="M617.984 353.984l124.032-72-33.984-56-153.984 94.016v214.016h64v-180.032zM937.984 361.984q0-70.016-25.984-132.032t-73.024-108.992-108.992-73.024-132.032-25.984q-65.984 0-123.008 22.016t-102.976 62.016h-201.984q-36.032 0-60.032 25.024t-24 60.992v384q0 36.032 25.024 60.032t59.008 25.984v20.032q0 54.016 25.984 97.024t70.016 68.992 96 25.984q49.984 0 92.032-22.976t68.032-62.016 30.016-89.024q24 4.032 46.016 4.032 70.016 0 132.032-27.008t108.992-73.984 73.024-108.032 25.984-132.992zM256 662.016h214.016v30.016q-4.032 41.984-35.008 70.016t-73.024 28.032q-44.032 0-75.008-32t-30.976-76.032v-20.032zM854.016 361.984q0 72-35.008 129.984t-92.992 92.032-128 33.984q-72 0-129.984-33.984t-92.032-92.032-33.984-129.984q0-70.016 33.984-128t92.032-92.992 129.984-35.008q70.016 0 128 35.008t92.992 92.992 35.008 128z" />
<glyph unicode="&#xe935;" glyph-name="plus" d="M512 832c35.776 0 65.344-26.944 69.376-61.696l0.448-8.128-0.064-244.352h244.416c38.528 0 69.824-31.232 69.824-69.824 0-35.776-26.944-65.344-61.696-69.376l-8.128-0.448-244.416 0.064 0.064-244.416c0-38.528-31.232-69.824-69.824-69.824-35.776 0-65.344 26.944-69.376 61.696l-0.448 8.128v244.416l-244.352-0.064c-38.592 0-69.824 31.232-69.824 69.824 0 35.776 26.944 65.344 61.696 69.376l8.128 0.448h244.352v244.352c0 38.592 31.232 69.824 69.824 69.824z" />
<glyph unicode="&#xe936;" glyph-name="pointer-down" d="M822.144 330.432l-248.704-289.344c-28.8-33.536-79.296-37.312-112.832-8.512-3.072 2.624-5.888 5.44-8.512 8.512l-248.704 289.344c-15.104 17.6-13.12 44.096 4.48 59.264 1.408 1.216 2.88 2.304 4.352 3.264 22.912 14.976 53.44 10.688 71.296-10.112l180.672-210.176c23.040-26.816 63.424-29.824 90.24-6.784 2.432 2.112 4.736 4.352 6.784 6.784l180.672 210.176c17.856 20.8 48.384 25.088 71.296 10.112 19.392-12.672 24.832-38.72 12.16-58.176-1.024-1.536-2.112-3.008-3.264-4.352zM512.96 832c24.448 0 44.608-26.944 47.36-61.696l0.32-8.128v-628.352c0-38.528-21.376-69.824-47.68-69.824-24.448 0-44.608 26.944-47.36 61.696l-0.32 8.128v628.352c0 38.592 21.376 69.824 47.68 69.824z" />
<glyph unicode="&#xe937;" glyph-name="pointer-left" d="M436.672 141.504l-289.344 248.704c-33.536 28.8-37.312 79.296-8.512 112.832 2.624 3.072 5.44 5.888 8.512 8.512l289.344 248.704c17.6 15.104 44.096 13.12 59.264-4.48 1.216-1.408 2.304-2.88 3.264-4.352 14.976-22.912 10.688-53.44-10.112-71.296l-210.176-180.672c-26.816-23.040-29.824-63.424-6.784-90.24 2.112-2.432 4.352-4.736 6.784-6.784l210.176-180.672c20.8-17.856 25.088-48.384 10.112-71.296-12.672-19.392-38.72-24.832-58.176-12.16-1.536 1.024-3.008 2.112-4.352 3.264zM947.2 448c0-24.448-26.944-44.608-61.696-47.36l-8.128-0.32h-628.352c-38.592 0-69.824 21.376-69.824 47.68 0 24.448 26.944 44.608 61.696 47.36l8.128 0.32h628.352c38.592 0 69.824-21.376 69.824-47.68z" />
<glyph unicode="&#xe938;" glyph-name="priority-high" d="M293.248 320l34.944 275.968v172.032h-132.608v-172.032l34.048-275.968h63.616zM332.672 128.256v137.984h-140.672v-137.984h140.672zM542.336 320l34.944 275.968v172.032h-132.608v-172.032l34.048-275.968h63.616zM581.76 128.256v137.984h-140.672v-137.984h140.672zM791.424 320l34.944 275.968v172.032h-132.608v-172.032l34.048-275.968h63.616zM830.848 128.256v137.984h-140.672v-137.984h140.672z" />
<glyph unicode="&#xe939;" glyph-name="priority-low" d="M549.248 320l34.944 275.968v172.032h-132.608v-172.032l34.048-275.968h63.616zM588.672 128.256v137.984h-140.672v-137.984h140.672z" />
<glyph unicode="&#xe93a;" glyph-name="priority-medium" d="M421.248 320l34.944 275.968v172.032h-132.608v-172.032l34.048-275.968h63.616zM460.672 128.256v137.984h-140.672v-137.984h140.672zM670.336 320l34.944 275.968v172.032h-132.608v-172.032l34.048-275.968h63.616zM709.76 128.256v137.984h-140.672v-137.984h140.672z" />
<glyph unicode="&#xe93b;" glyph-name="project" d="M383.616 832c14.144 0 27.776-4.672 38.848-13.12l6.336-5.568 109.696-109.376h272.32c78.976 0 143.616-61.376 148.864-139.008l0.32-10.24v-341.504c0-78.976-61.376-143.616-139.008-148.864l-10.24-0.32h-597.568c-78.976 0-143.616 61.376-148.864 139.008l-0.32 10.24v469.568c0 78.976 61.376 143.616 139.008 148.864l10.24 0.32h170.432zM357.12 704h-143.936c-10.24 0-18.816-7.296-20.8-16.96l-0.448-4.288v-469.568c0-10.24 7.296-18.816 16.96-20.8l4.288-0.448h597.568c10.24 0 18.816 7.296 20.8 16.96l0.448 4.288v341.504c0 10.24-7.296 18.816-16.96 20.8l-4.288 0.448h-298.752c-14.144 0-27.776 4.672-38.848 13.12l-6.336 5.568-109.76 109.376z" />
<glyph unicode="&#xe93c;" glyph-name="question-circle-o" horiz-adv-x="896" d="M502.848 274.304v-91.456c0-10.304-8-18.304-18.304-18.304h-91.456c-10.304 0-18.304 8-18.304 18.304v91.456c0 10.304 8 18.304 18.304 18.304h91.456c10.304 0 18.304-8 18.304-18.304zM649.152 557.696c0-81.152-56.576-113.152-98.304-136.576-29.696-17.152-48-28.032-48-46.272v-18.304c0-10.304-8-18.304-18.304-18.304h-91.456c-10.304 0-18.304 8-18.304 18.304v38.848c0 70.272 50.304 92.544 90.88 110.848 34.304 16 55.424 26.88 55.424 52.544 0 33.152-41.728 57.728-79.424 57.728-20.032 0-41.152-6.272-54.272-15.424-12.544-8.576-24.576-21.12-45.696-47.424-3.456-4.544-8.576-6.848-14.272-6.848-4.032 0-8 1.152-10.88 3.456l-61.696 46.848c-7.424 5.696-9.152 16.576-4.032 24.576 46.848 73.728 112.576 109.696 199.424 109.696v0c93.696 0 198.848-74.304 198.848-173.696zM438.848 813.696c-201.728 0-365.696-164.032-365.696-365.696s164.032-365.696 365.696-365.696 365.696 164.032 365.696 365.696-164.032 365.696-365.696 365.696zM877.696 448c0-242.304-196.544-438.848-438.848-438.848s-438.848 196.544-438.848 438.848 196.544 438.848 438.848 438.848v0c242.304 0 438.848-196.544 438.848-438.848z" />
<glyph unicode="&#xe93d;" glyph-name="question-circle" horiz-adv-x="896" d="M512 173.696v109.696c0 10.304-8 18.304-18.304 18.304h-109.696c-10.304 0-18.304-8-18.304-18.304v-109.696c0-10.304 8-18.304 18.304-18.304h109.696c10.304 0 18.304 8 18.304 18.304zM658.304 557.696c0 104.576-109.696 182.848-208 182.848-93.12 0-162.88-40-212.032-121.728-5.12-8-2.88-18.304 4.544-24l75.456-57.152c2.88-2.304 6.848-3.456 10.88-3.456 5.12 0 10.88 2.304 14.272 6.848 26.88 34.304 38.272 44.544 49.152 52.544 9.728 6.848 28.544 13.696 49.152 13.696 36.544 0 70.272-23.424 70.272-48.576 0-29.696-15.424-44.544-50.304-60.544-40.576-18.304-96-65.728-96-121.152v-20.544c0-10.304 8-18.304 18.304-18.304h109.696c10.304 0 18.304 8 18.304 18.304v0c0 13.12 16.576 41.152 43.456 56.576 43.456 24.576 102.848 57.728 102.848 144.576zM877.696 448c0-242.304-196.544-438.848-438.848-438.848s-438.848 196.544-438.848 438.848 196.544 438.848 438.848 438.848 438.848-196.544 438.848-438.848z" />
<glyph unicode="&#xe93e;" glyph-name="question" horiz-adv-x="640" d="M402.304 242.304v-137.152c0-12.544-10.304-22.848-22.848-22.848h-137.152c-12.544 0-22.848 10.304-22.848 22.848v137.152c0 12.544 10.304 22.848 22.848 22.848h137.152c12.544 0 22.848-10.304 22.848-22.848zM582.848 585.152c0-108.544-73.728-150.272-128-180.544-33.728-19.456-54.848-58.88-54.848-75.456v0c0-12.544-9.728-27.456-22.848-27.456h-137.152c-12.544 0-20.544 19.456-20.544 32v25.728c0 69.12 68.544 128.576 118.848 151.424 44.032 20.032 62.272 38.848 62.272 75.456 0 32-41.728 60.544-88 60.544-25.728 0-49.152-8-61.696-16.576-13.696-9.728-27.456-23.424-61.12-65.728-4.544-5.696-11.456-9.152-17.728-9.152-5.12 0-9.728 1.728-14.272 4.544l-93.696 71.424c-9.728 7.424-12.032 20.032-5.696 30.272 61.696 102.272 148.544 152 265.152 152 122.304 0 259.456-97.728 259.456-228.544z" />
<glyph unicode="&#xe93f;" glyph-name="reaction" d="M512 800c194.112 0 352-157.888 352-352s-157.888-352-352-352c-194.112 0-352 157.888-352 352s157.888 352 352 352zM512 896c-247.424 0-448-200.576-448-448s200.576-448 448-448c247.424 0 448 200.576 448 448s-200.576 448-448 448zM768 416c-57.152-24.64-142.528-36.992-256-36.992s-198.848 12.352-256 36.992c14.144-93.76 120.576-228.288 256-228.288 133.696 0 241.792 133.632 256 228.288zM368 640c-44.16 0-80-35.776-80-80s35.84-80 80-80c44.16 0 80 35.776 80 80s-35.84 80-80 80zM656 640c-44.16 0-80-35.776-80-80s35.84-80 80-80c44.16 0 80 35.776 80 80s-35.84 80-80 80z" />
<glyph unicode="&#xe940;" glyph-name="replay" d="M512 16c212.096 0 384 171.904 384 384 0 207.232-164.224 376.192-369.6 383.744l-14.4 0.256v96l-218.496-144 218.496-144v96c159.040 0 288-128.96 288-288s-128.96-288-288-288c-154.496 0-280.576 121.664-287.68 274.432l-0.32 13.568h-96c0-212.096 171.904-384 384-384zM662.208 400.96l-196.928 137.088c-19.008 13.248-49.28 2.816-49.28-16.96v-274.24c0-19.776 30.272-30.208 49.28-16.96l196.928 137.088c13.056 9.088 13.056 24.896 0 33.984z" />
<glyph unicode="&#xe941;" glyph-name="report" d="M294.336 880c26.496 0 48-21.504 48-48 0-24.32-18.048-44.352-41.472-47.552l-6.528-0.448h-83.136c-16.96 0-31.936-14.016-34.752-33.408l-0.448-6.656v-527.936c0-20.416 13.248-36.48 29.632-39.488l5.568-0.512h268.8c26.496 0 48-21.504 48-48 0-24.32-18.048-44.352-41.472-47.552l-6.528-0.448h-268.8c-69.888 0-126.144 56.256-130.88 126.4l-0.32 9.664v527.936c0 71.296 53.184 130.624 121.792 135.68l9.472 0.32h83.136zM768 416c15.68 0 28.8-11.328 31.488-26.24l0.512-5.76v-96h96c15.68 0 28.8-11.328 31.488-26.24l0.512-5.76c0-15.68-11.328-28.8-26.24-31.488l-5.76-0.512h-128c-15.68 0-28.8 11.328-31.488 26.24l-0.512 5.76v128c0 17.664 14.336 32 32 32zM672.064 880c74.944-0.064 138.24-53.44 143.552-123.648l0.384-9.664v-170.624c0-26.496-21.504-48-48-48-24.32 0-44.352 18.048-47.552 41.472l-0.448 6.528v170.624c0 17.536-16.768 34.048-40.64 36.928l-7.36 0.448h-77.824c-26.496 0-48 21.504-48 48 0 24.32 18.048 44.352 41.472 47.552l6.528 0.448h77.824zM512 928h-128c-52.992 0-96-43.008-96-96s43.008-96 96-96h128c52.992 0 96 43.008 96 96s-43.008 96-96 96zM384 864h128c17.664 0 32-14.336 32-32s-14.336-32-32-32h-128c-17.664 0-32 14.336-32 32s14.336 32 32 32zM768 496c-132.544 0-240-107.456-240-240s107.456-240 240-240c132.544 0 240 107.456 240 240s-107.456 240-240 240zM768 400c79.552 0 144-64.448 144-144s-64.448-144-144-144c-79.552 0-144 64.448-144 144s64.448 144 144 144zM576 608c17.664 0 32-14.336 32-32 0-15.68-11.328-28.8-26.24-31.488l-5.76-0.512h-256c-17.664 0-32 14.336-32 32 0 15.68 11.328 28.8 26.24 31.488l5.76 0.512h256zM448 416c17.664 0 32-14.336 32-32 0-15.68-11.328-28.8-26.24-31.488l-5.76-0.512h-128c-17.664 0-32 14.336-32 32 0 15.68 11.328 28.8 26.24 31.488l5.76 0.512h128z" />
<glyph unicode="&#xe942;" glyph-name="settings" d="M385.664-64l-25.6 159.808c-12.992 4.928-27.456 11.904-43.328 20.928s-29.504 18.048-40.896 27.072l-148.928-67.584-126.912 228.672 133.056 99.584c-0.832 5.76-1.408 13.12-1.856 22.144s-0.64 16.768-0.64 23.36c0 5.76 0.192 12.928 0.64 21.504s1.024 16.192 1.856 22.72l-133.056 98.368 126.912 227.392 146.432-67.584c11.392 9.024 25.216 18.24 41.472 27.648s31.296 16.576 45.184 21.504l25.6 158.592h252.672l24.384-158.592c13.824-4.928 29.12-12.096 45.76-21.504s30.336-18.624 40.896-27.648l147.712 67.584 126.912-227.392-135.488-97.088c0.832-7.36 1.6-15.552 2.432-24.576s1.216-16.832 1.216-23.36c0-6.528-0.384-14.144-1.216-22.72s-1.216-16.192-1.216-22.72l133.056-97.088-126.912-228.672-148.928 67.584c-11.392-9.024-24.832-18.24-40.256-27.648s-29.696-16.192-42.688-20.288l-25.6-159.808h-252.672zM510.144 271.616c48.832 0 90.304 17.216 124.48 51.648s51.264 76.224 51.264 125.376c0 49.152-17.088 90.944-51.264 125.376s-75.648 51.648-124.48 51.648c-48.832 0-90.304-17.216-124.48-51.648s-51.264-76.224-51.264-125.376c0-49.152 17.088-90.944 51.264-125.376s75.648-51.648 124.48-51.648z" />
<glyph unicode="&#xe943;" glyph-name="sort" d="M820.8 277.248l-251.584-250.496c-31.232-31.104-81.664-31.104-112.896 0l-251.584 250.496c-13.568 13.504-13.632 35.456-0.128 49.088 2.24 2.304 4.8 4.224 7.616 5.76 23.68 13.248 53.376 9.216 72.64-9.984l182.72-181.952c24.96-24.832 65.344-24.832 90.304 0l182.72 181.952c19.264 19.2 48.896 23.232 72.64 9.984 16.704-9.344 22.656-30.528 13.312-47.232-1.536-2.816-3.52-5.376-5.76-7.616zM204.736 623.808l251.584 250.496c31.232 31.104 81.664 31.104 112.896 0l251.584-250.496c13.568-13.504 13.632-35.456 0.128-49.024-2.24-2.304-4.8-4.224-7.616-5.76-23.68-13.248-53.376-9.216-72.64 9.984l-182.72 181.952c-24.96 24.832-65.344 24.832-90.304 0l-182.72-181.952c-19.264-19.2-48.896-23.232-72.64-9.984-16.704 9.344-22.656 30.528-13.312 47.232 1.6 2.816 3.52 5.376 5.76 7.616zM512.96 832c24.448 0 44.608-26.944 47.36-61.696l0.32-8.128v-628.352c0-38.528-21.376-69.824-47.68-69.824-24.448 0-44.608 26.944-47.36 61.696l-0.32 8.128v628.352c0 38.592 21.376 69.824 47.68 69.824z" />
<glyph unicode="&#xe944;" glyph-name="sort1" d="M128 406.016v84.032h512v-84.032h-512zM128 704h768v-86.016h-768v86.016zM128 192v86.016h256v-86.016h-256z" />
<glyph unicode="&#xe945;" glyph-name="stack" d="M1024 640l-512 256-512-256 512-256 512 256zM512 811.008l342.080-171.008-342.080-171.008-342.080 171.008 342.080 171.008zM921.472 499.264l102.528-51.264-512-256-512 256 102.528 51.264 409.472-204.736zM921.472 307.264l102.528-51.264-512-256-512 256 102.528 51.264 409.472-204.736z" />
<glyph unicode="&#xe946;" glyph-name="star" d="M380.032 601.6l-209.92-26.048-6.848-1.344c-35.136-9.408-48-54.72-20.416-81.024l157.248-150.080-43.136-221.76-0.832-6.336c-2.496-37.568 38.976-64.256 72.768-43.904l183.104 110.528 183.296-110.528 5.696-2.944c34.432-15.232 73.792 14.592 66.24 53.248l-43.328 221.888 157.184 149.888 4.672 5.12c22.592 28.48 5.888 72.512-31.936 77.248l-209.984 26.112-87.872 201.792c-16.768 38.4-71.232 38.4-88 0l-87.936-201.792z" />
<glyph unicode="&#xe947;" glyph-name="start" d="M32 33.024v829.952c0 35.904 29.12 65.024 65.024 65.024 10.368 0 20.544-2.496 29.76-7.232l829.952-427.072c31.936-16.448 44.48-55.616 28.032-87.552-6.464-12.544-16.768-22.592-29.44-28.736l-829.952-402.88c-32.32-15.68-71.232-2.176-86.912 30.080-4.288 8.832-6.528 18.56-6.528 28.416z" />
<glyph unicode="&#xe948;" glyph-name="stop" d="M256 768h512c35.328 0 64-28.672 64-64v-512c0-35.328-28.672-64-64-64h-512c-35.328 0-64 28.672-64 64v512c0 35.328 28.672 64 64 64z" />
<glyph unicode="&#xe949;" glyph-name="substar" d="M380.032 601.6l-209.92-26.048-6.848-1.344c-35.136-9.408-48-54.72-20.416-81.024l157.248-150.080-43.136-221.76-0.832-6.336c-2.496-37.568 38.976-64.256 72.768-43.904l183.104 110.528 183.296-110.528 5.696-2.944c34.432-15.232 73.792 14.592 66.24 53.248l-43.328 221.888 157.184 149.888 4.672 5.12c22.592 28.48 5.888 72.512-31.936 77.248l-209.984 26.112-87.872 201.792c-16.768 38.4-71.232 38.4-88 0l-87.936-201.792zM512 664.128l54.912-125.888 3.392-6.336c7.616-12.096 20.288-20.288 34.688-22.080l136.576-16.96-102.912-98.176-4.672-5.12c-8.512-10.88-12.032-25.024-9.344-38.784l27.584-141.44-115.456 69.568-6.72 3.392c-13.888 5.632-29.76 4.48-42.88-3.392l-115.328-69.568 27.52 141.312 0.832 6.912c0.64 13.76-4.672 27.328-14.784 36.992l-102.976 98.304 136.64 16.832c16.832 2.112 31.36 12.928 38.080 28.48l54.912 126.016z" />
<glyph unicode="&#xe94a;" glyph-name="table" d="M0 768v-704h1024v704h-1024zM384 320v128h256v-128h-256zM640 256v-128h-256v128h256zM640 640v-128h-256v128h256zM320 640v-128h-256v128h256zM64 448h256v-128h-256v128zM704 448h256v-128h-256v128zM704 512v128h256v-128h-256zM64 256h256v-128h-256v128zM704 128v128h256v-128h-256z" />
<glyph unicode="&#xe94b;" glyph-name="tags" d="M468.8 870.4h-222.144c-52.992 0-96-43.008-96-96v-218.24c0-18.496 7.296-36.224 20.288-49.408l294.272-298.496c37.184-37.696 97.92-38.208 135.68-1.024l211.776 208.32c35.456 34.88 38.080 90.432 7.68 128.384l-6.72 7.552-294.784 298.048c-13.248 13.376-31.232 20.864-50.048 20.864zM444.736 742.464l255.296-258.176-166.208-163.392-255.168 258.88v162.688h166.080zM214.656 358.4c12.544 12.48 32.768 12.416 45.248-0.128l251.264-252.48c12.352-12.416 32.448-12.608 44.992-0.32l189.184 184.32c12.672 12.352 32.896 12.096 45.248-0.576s12.096-32.896-0.576-45.248l-211.84-206.4c-23.168-22.592-59.2-24.064-84.032-4.608l-5.952 5.312-273.6 274.88c-12.48 12.544-12.416 32.768 0.128 45.248zM422.4 662.4c0-35.328-28.672-64-64-64s-64 28.672-64 64c0 35.328 28.672 64 64 64s64-28.672 64-64z" />
<glyph unicode="&#xe94c;" glyph-name="tasks" d="M294.336 880c26.496 0 48-21.504 48-48 0-24.32-18.048-44.352-41.472-47.552l-6.528-0.448h-83.136c-16.96 0-31.936-14.016-34.752-33.408l-0.448-6.656v-527.936c0-20.416 13.248-36.48 29.632-39.488l5.568-0.512h268.8c26.496 0 48-21.504 48-48 0-24.32-18.048-44.352-41.472-47.552l-6.528-0.448h-268.8c-69.888 0-126.144 56.256-130.88 126.4l-0.32 9.664v527.936c0 71.296 53.184 130.624 121.792 135.68l9.472 0.32h83.136zM672.064 880c74.944-0.064 138.24-53.44 143.552-123.648l0.384-9.664v-170.624c0-26.496-21.504-48-48-48-24.32 0-44.352 18.048-47.552 41.472l-0.448 6.528v170.624c0 17.536-16.768 34.048-40.64 36.928l-7.36 0.448h-77.824c-26.496 0-48 21.504-48 48 0 24.32 18.048 44.352 41.472 47.552l6.528 0.448h77.824zM512 944h-128c-61.824 0-112-50.176-112-112s50.176-112 112-112h128c61.824 0 112 50.176 112 112s-50.176 112-112 112zM384 848h128c8.832 0 16-7.168 16-16s-7.168-16-16-16h-128c-8.832 0-16 7.168-16 16s7.168 16 16 16zM576 688c26.496 0 48-21.504 48-48 0-24.32-18.048-44.352-41.472-47.552l-6.528-0.448h-256c-26.496 0-48 21.504-48 48 0 24.32 18.048 44.352 41.472 47.552l6.528 0.448h256zM576 560c26.496 0 48-21.504 48-48 0-24.32-18.048-44.352-41.472-47.552l-6.528-0.448h-256c-26.496 0-48 21.504-48 48 0 24.32 18.048 44.352 41.472 47.552l6.528 0.448h256zM448 432c26.496 0 48-21.504 48-48 0-24.32-18.048-44.352-41.472-47.552l-6.528-0.448h-128c-26.496 0-48 21.504-48 48 0 24.32 18.048 44.352 41.472 47.552l6.528 0.448h128zM448 304c26.496 0 48-21.504 48-48 0-24.32-18.048-44.352-41.472-47.552l-6.528-0.448h-128c-26.496 0-48 21.504-48 48 0 24.32 18.048 44.352 41.472 47.552l6.528 0.448h128zM993.664 423.040c-17.536 14.464-42.944 14.272-60.288-0.384l-230.528-194.88-100.608 79.68c-17.856 14.144-43.2 13.632-60.48-1.088-13.568-11.584-15.168-32-3.584-45.568 1.344-1.6 2.816-3.008 4.416-4.288l161.344-128.576 289.984 244.8c13.824 11.648 15.552 32.32 3.904 46.144-1.28 1.536-2.688 2.88-4.224 4.16z" />
<glyph unicode="&#xe94d;" glyph-name="trash" d="M128 640v-640c0-35.2 28.8-64 64-64h576c35.2 0 64 28.8 64 64v640h-704zM320 64h-64v448h64v-448zM448 64h-64v448h64v-448zM576 64h-64v448h64v-448zM704 64h-64v448h64v-448zM848 832h-208v80c0 26.368-21.632 48-48 48h-224c-26.368 0-48-21.632-48-48v-80h-208c-26.432 0-48-21.568-48-48v-80h832v80c0 26.432-21.632 48-48 48zM576 832h-192v63.168h192v-63.168z" />
<glyph unicode="&#xe94e;" glyph-name="triangle-arrow-down" d="M545.984 211.584l274.24 393.856c26.496 38.016 5.568 98.624-33.984 98.624h-548.416c-39.552 0-60.416-60.608-33.984-98.624l274.24-393.856c18.176-26.048 49.792-26.048 67.968 0z" />
<glyph unicode="&#xe94f;" glyph-name="triangle-arrow-right" d="M748.416 481.984l-393.856 274.24c-38.016 26.496-98.624 5.568-98.624-33.984v-548.416c0-39.552 60.608-60.416 98.624-33.984l393.856 274.24c26.048 18.176 26.048 49.792 0 67.968z" />
<glyph unicode="&#xe950;" glyph-name="triangle-arrow-up" d="M478.016 684.416l-274.24-393.856c-26.496-38.016-5.568-98.624 33.984-98.624h548.416c39.552 0 60.416 60.608 33.984 98.624l-274.24 393.856c-18.176 26.048-49.792 26.048-67.968 0z" />
<glyph unicode="&#xe951;" glyph-name="shine" horiz-adv-x="1040" d="M476.621 958.266c-1.68-2.221-3.034-6.231-5.255-15.333-2.872-12.136-5.418-19.342-10.565-29.799-13.112-26.873-34.892-48.654-61.765-61.765-9.915-4.822-17.717-7.531-31.316-10.836-8.723-2.113-12.407-3.522-14.303-5.255-3.576-3.359 0.433-5.797 15.495-9.427 10.728-2.655 17.012-4.659 24.706-8.073 29.853-13.22 52.825-35.163 66.966-63.932 5.472-11.215 7.639-17.175 10.782-29.853 2.926-11.703 4.659-16.146 6.772-17.121 1.192-0.542 1.517-0.433 2.709 0.65 1.788 1.68 3.142 5.472 5.743 15.821 6.989 28.065 17.934 47.787 37.059 66.695 18.15 17.988 39.172 29.474 65.016 35.65 13.003 3.034 17.283 5.093 16.958 7.964-0.271 2.33-4.497 4.172-16.308 7.152-14.791 3.684-21.293 6.068-33.050 12.028-24.381 12.407-45.89 34.079-58.243 58.731-5.526 10.89-7.694 17.012-11.486 32.020-2.98 11.811-4.822 16.037-7.152 16.308-1.084 0.108-1.734-0.271-2.763-1.625zM209.297 804.287c-3.251-2.763-5.526-8.831-9.319-24.869-3.251-13.816-6.122-23.297-10.186-33.971-19.83-51.85-58.731-94.923-108.522-120.225-15.17-7.748-30.828-13.545-47.407-17.608-23.893-5.906-27.848-7.206-31.587-10.403-2.98-2.546-3.088-4.497-0.379-7.043 3.197-2.98 10.077-5.31 30.341-10.186 67.725-16.254 124.018-62.903 152.679-126.564 6.718-15.008 11.215-28.607 15.279-46.595 3.305-14.466 6.447-22.485 9.752-24.435 2.113-1.354 2.601-1.3 4.605 0.379 3.305 2.817 6.177 10.24 9.481 24.814 4.93 21.401 10.294 36.734 19.342 54.722 26.548 53.042 73.956 93.948 130.519 112.694 7.477 2.438 14.899 4.443 27.307 7.368 8.56 2.005 13.112 3.468 17.121 5.472 3.251 1.625 5.906 4.28 5.906 5.851 0 3.847-9.373 8.181-25.194 11.703-40.527 8.94-74.335 26.061-104.567 52.88-33.971 30.178-58.027 70.326-68.863 114.916-5.039 20.968-7.206 27.307-10.24 30.557-2.113 2.221-3.901 2.384-6.068 0.542zM659.64 692.676c-2.492-1.084-6.068-5.472-8.398-10.348-4.063-8.398-7.043-18.584-12.461-42.694-9.048-39.985-25.844-81.541-47.299-117.137-36.68-60.844-88.53-110.744-151.054-145.365-33.483-18.475-71.897-32.887-109.66-41.014-26.44-5.689-42.64-11.974-46.324-17.934-1.3-2.059-1.409-5.201-0.217-7.206 1.138-1.95 5.581-5.147 10.294-7.368 7.748-3.684 15.821-6.014 43.506-12.461 53.801-12.516 105.542-36.68 149.862-69.946 26.548-19.884 52.392-44.969 73.089-70.921 29.853-37.384 52.609-79.319 67.508-124.289 4.659-14.087 7.748-25.302 11.865-43.29 6.339-27.578 10.89-39.551 16.958-44.807 9.102-7.748 17.717 7.423 26.169 46.053 9.969 45.511 27.307 88.205 52.067 128.135 16.308 26.331 34.458 49.033 57.593 72.059 19.992 19.938 37.926 34.675 60.519 49.737 41.989 28.011 87.392 47.407 137.346 58.623 27.578 6.177 40.418 10.728 46.432 16.525 2.546 2.492 2.817 2.98 2.817 5.093 0 3.142-1.517 5.472-5.201 7.91-8.181 5.418-17.067 8.29-49.25 15.712-40.147 9.319-80.403 25.627-115.945 47.028-23.135 13.978-48.22 32.725-65.558 49.141-2.059 2.005-5.255 4.93-6.989 6.556-5.635 5.201-20.968 21.672-28.444 30.557-20.805 24.923-37.276 49.954-51.742 78.832-15.712 31.479-26.169 61.277-34.188 97.524-3.684 16.796-6.881 27.252-10.782 35.163-2.33 4.876-6.122 9.536-8.073 10.077-2.546 0.759-2.872 0.759-4.443 0.054z" />
<glyph unicode="&#xe952;" glyph-name="light-bulb" d="M634 380.667q92 64 92 174 0 88-63 151t-151 63-151-63-63-151q0-46 27-96t65-78l36-26v-98h172v98zM512 852.667q124 0 211-87t87-211q0-156-128-244v-98q0-18-12-30t-30-12h-256q-18 0-30 12t-12 30v98q-128 88-128 244 0 124 87 211t211 87zM384 42.667v42h256v-42q0-18-12-30t-30-12h-172q-18 0-30 12t-12 30z" />
<glyph unicode="&#xe953;" glyph-name="zoom-out" d="M992.262 88.604l-242.552 206.294c-25.074 22.566-51.89 32.926-73.552 31.926 57.256 67.068 91.842 154.078 91.842 249.176 0 212.078-171.922 384-384 384-212.076 0-384-171.922-384-384s171.922-384 384-384c95.098 0 182.108 34.586 249.176 91.844-1-21.662 9.36-48.478 31.926-73.552l206.294-242.552c35.322-39.246 93.022-42.554 128.22-7.356s31.892 92.898-7.354 128.22zM384 320c-141.384 0-256 114.616-256 256s114.616 256 256 256 256-114.616 256-256-114.614-256-256-256zM192 640h384v-128h-384z" />
<glyph unicode="&#xe954;" glyph-name="zoom-in" d="M992.262 88.604l-242.552 206.294c-25.074 22.566-51.89 32.926-73.552 31.926 57.256 67.068 91.842 154.078 91.842 249.176 0 212.078-171.922 384-384 384-212.076 0-384-171.922-384-384s171.922-384 384-384c95.098 0 182.108 34.586 249.176 91.844-1-21.662 9.36-48.478 31.926-73.552l206.294-242.552c35.322-39.246 93.022-42.554 128.22-7.356s31.892 92.898-7.354 128.22zM384 320c-141.384 0-256 114.616-256 256s114.616 256 256 256 256-114.616 256-256-114.614-256-256-256zM448 768h-128v-128h-128v-128h128v-128h128v128h128v128h-128z" />
</font>
</defs>
</svg>
